효군의 삼성 LCD TV 파브 사용기 - Divx 기능

2010. 6. 20. 12:06

 

요즘 LCD TV쪽은 시장에서 팔린지 좀 된 제품이다 보니 시장 진입 초기에 나타나는 제품 자체의 문제가 거의 없다고 볼 수 있겠습니다. (신제품 출시 후 3개월 이내에 구입하는건 돈주고 베타테스트 하는 격이다.)
그러니까 LCD만이 가진 단점인 '시야각이 좁다'라든지 '잔상이 심하다'와 같은 기술적인 문제점은 상당히 해결이 된 시점이고, 차세대 기술인 LED TV나 3D TV가 이제 막 시장에 진입하고 있는 시점이라서 비슷하면서도 서로 다른 제품들이 각자의 특징과 가격을 앞세워 소비자의 시선을 끌고 있는 구입하기에는 딱 좋은 조건을 갖춘 시기라 생각합니다.

이미 LCD 제조 공정의 숙련도가 높아진 시점에 완전히 새롭고 다른 디스플레이 기술이 아니라 기존의 LCD 기술에 백라이트를 LED로 바꾼다던지 화면 출력 프레임을 120Hz 이상으로 끌어올려 3D 영상을 구현하는 부가적인 기술 향상이기 때문에 제품 자체의 결함이나 기술적인 문제는 없다고 볼 수 있습니다.
더군다나 이들 3종류의 TV는 모두다 디스플레이 시장을 공략하고 있기 때문에 제조사에서는 고급화와 차별화를 통해 다양한 제품군을 갖출려고 하면서 각각의 가격 차이를 크게 책정하려고 하기 때문에 소비자의 입장에서는 큰 가격 부담없이 기존의 아날로그 브라운관 TV를 디지털 LCD TV로 넘어갈 수 있는 기회가 바로 이 시점이 아닌가 생각합니다.

아무튼 이번 글에서는 이번에 새로 구입한 삼성 파브 LCD TV의 부가기능인 '미디어 플레이' 기능에 대해 알아보겠습니다.


Nokia | 6210 Navig | 1/17sec | F/2.8 | 3.7mm | ISO-728 | Off Compulsory | 2010:06:19 20:09:07
멀티미디어 파일을 TV를 통하여 볼 수 있는 기능이 바로 '미디어 플레이'입니다.
이러한 기능을 갖춘 TV는 보통 USB 포트를 이용하여 멀티미디어 파일을 읽어들이기 때문에 USB-Host 기능과 USB 포트를 기본적으로 지원하고 있습니다.
TV를 바꾸고 나서 유난히 제 8GB짜리 플래시 메모리가 유용하게 쓰이고 있습니다. ^^ 뭐 그래봤자 다음주에 올 500GB짜리 외장하드에 비하면 턱없이 부족한 용량이지만 4GB가 넘는 고화질의 동영상 파일을 저장할 수 있어서 어쩔수 없이 사용하고 있습니다.


Nokia | 6210 Navig | 1/20sec | F/2.8 | 3.7mm | ISO-74 | Flash did not fire, auto mode | 2010:06:19 20:23:12
USB 포트에 저장장치가 연결된 상태에서 리모컨을 통해 미디어 플레이 메인 화면으로 진입할 수 있습니다.
4가지 메뉴가 나오는데 가장 많이 이용할 것 같은 동영상 재생이 첫 메뉴로 나타납니다.


Nokia | 6210 Navig | 1/17sec | F/2.8 | 3.7mm | ISO-74 | Flash did not fire, auto mode | 2010:06:19 20:23:25
이어서 두번째 메뉴는 음악으로 폴더 트리구조를 지원하여 관리하기 편하고 태그 정보를 이용하여 장르별로 정렬할 수 있어서 리모컨만으로 손쉽게 수많은 음악을 재생시킬 수 있습니다.


Nokia | 6210 Navig | 1/17sec | F/2.8 | 3.7mm | ISO-74 | Flash did not fire, auto mode | 2010:06:19 20:23:34
세번째 메뉴는 사진으로 음악과 동일하게 폴더 트리구조로 사진을 찾아볼 수 있으며 같은 폴더내에 위치한 음악 파일을 배경음악으로 재생하면서 슬라이드 쇼를 감상 할 수 있습니다.


Nokia | 6210 Navig | 1/20sec | F/2.8 | 3.7mm | ISO-79 | Flash did not fire, auto mode | 2010:06:19 20:23:44
마지막 메뉴는 설정 메뉴인데 세부적인 설정은 각 재생 화면에서 설정하도록 되어있어 메인의 설정에서는 동영상을 중단된 지점에서부터 재생할 것인지, Divx VOD와 관련된 간단한 설정만 가능합니다.


Nokia | 6210 Navig | 1/15sec | F/2.8 | 3.7mm | ISO-91 | Flash fired, auto mode | 2010:06:19 20:22:45
테스트할 동영상 파일은 영화 '라이언 일병 구하기'의 DVD Rip파일로 확장자는 mkv입니다.
4GB가 넘는 용량만 보아도 엄청난 고화질의 영상인 것을 확인할 수 있습니다.

다음은 동영상 파일의 상세 정보입니다.

H:\라이언 일병 구하기\라이언 일병 구하기.mkv
  General
    Complete name : H:\라이언 일병 구하기\라이언 일병 구하기.mkv
    Format : Matroska
    File size : 4.10 GiB
    Duration : 2h 49mn
    Overall bit rate : 3 466 Kbps
    Encoded date : UTC 2010-04-16 15:29:18
    Writing application : mkvmerge v2.5.3 ('Boogie') built on Mar  7 2009 15:00:41
    Writing library : libebml v0.7.7 + libmatroska v0.8.1
  Video #1
    ID : 1
    Format : AVC
    Format/Info : Advanced Video Codec
    Format profile : High@L4.1
    Format settings, CABAC : Yes
    Format settings, ReFrames : 4 frames
    Muxing mode : Container profile=Unknown@4.1
    Codec ID : V_MPEG4/ISO/AVC
    Duration : 2h 49mn
    Bit rate : 1 888 Kbps
    Nominal bit rate : 1 962 Kbps
    Width : 1 024 pixels
    Height : 554 pixels
    Display aspect ratio : 16:9
    Frame rate : 23.976 fps
    Resolution : 8 bits
    Colorimetry : 4:2:0
    Scan type : Progressive
    Bits/(Pixel*Frame) : 0.139
    Stream size : 2.24 GiB (54%)
    Writing library : x264 core 93 r1538 bd72d46
    Encoding settings : cabac=1 / ref=3 / deblock=1:0:0 / analyse=0x3:0x133 / me=umh / subme=7 / psy=1 / psy_rd=1.00:0.00 / mixed_ref=1 / me_range=16 / chroma_me=1 / trellis=1 / 8x8dct=1 / cqm=0 / deadzone=21,11 / fast_pskip=1 / chroma_qp_offset=-2 / threads=3 / sliced_threads=0 / nr=0 / decimate=1 / interlaced=0 / constrained_intra=0 / bframes=3 / b_pyramid=2 / b_adapt=1 / b_bias=0 / direct=1 / wpredb=1 / wpredp=2 / keyint=250 / keyint_min=25 / scenecut=40 / intra_refresh=0 / rc_lookahead=40 / rc=2pass / mbtree=1 / bitrate=1962 / ratetol=1.0 / qcomp=0.60 / qpmin=10 / qpmax=51 / qpstep=4 / cplxblur=20.0 / qblur=0.5 / ip_ratio=1.40 / aq=1:1.00
  Audio #2
    ID : 2
    Format : DTS
    Format/Info : Digital Theater Systems
    Codec ID : A_DTS
    Duration : 2h 49mn
    Bit rate mode : Constant
    Bit rate : 755 Kbps
    Channel(s) : 6 channels
    Channel positions : Front: L C R, Side: L R, LFE
    Sampling rate : 48.0 KHz
    Resolution : 24 bits
    Stream size : 915 MiB (22%)
    Title : English
    Language : English
  Audio #3
    ID : 3
    Format : DTS
    Format/Info : Digital Theater Systems
    Codec ID : A_DTS
    Duration : 2h 49mn
    Bit rate mode : Constant
    Bit rate : 755 Kbps
    Channel(s) : 6 channels
    Channel positions : Front: L C R, Side: L R, LFE
    Sampling rate : 48.0 KHz
    Resolution : 24 bits
    Stream size : 915 MiB (22%)
    Title : Chinese
    Language : Chinese



Nokia | 6210 Navig | 1/17sec | F/2.8 | 3.7mm | ISO-112 | Off Compulsory | 2010:06:19 20:06:04
동영상 파일이 TV와 같은 16:9라서 화면에 여백없이 출력되었습니다.


Nokia | 6210 Navig | 1/17sec | F/2.8 | 3.7mm | ISO-104 | Off Compulsory | 2010:06:19 20:08:09
시야각을 확인하고자 우측에서 봤습니다.


Nokia | 6210 Navig | 1/17sec | F/2.8 | 3.7mm | ISO-170 | Off Compulsory | 2010:06:19 20:07:36
이번엔 왼쪽에서 찍어봤는데 4년된 컴퓨터용 LCD 모니터보다 시야각이 넓고 색상 반전이 없어서 거실 어디에서나 보는데에는 큰 문제가 없을거 같습니다.
(평소에 이렇게까지 옆쪽에서 TV를 보지는 않잖아요? 응응?!)


Nokia | 6210 Navig | 1/40sec | F/2.8 | 3.7mm | ISO-91 | Off Compulsory | 2010:06:19 20:13:33
자막도 가독성있게 나오는데다가 통합자막인 경우 다른 언어로 바꿀 수도 있고, 영상과 싱크가 맞지 않을 경우 수동으로 싱크 수정도 가능합니다.


Nokia | 6210 Navig | 1/17sec | F/2.8 | 3.7mm | ISO-119 | Flash did not fire, auto mode | 2010:06:19 20:19:33
Nokia | 6210 Navig | 1/17sec | F/2.8 | 3.7mm | ISO-128 | Flash did not fire, auto mode | 2010:06:19 20:20:01
Nokia | 6210 Navig | 1/15sec | F/2.8 | 3.7mm | ISO-85 | Flash fired, auto mode | 2010:06:19 20:21:53
그 유명한 저격수 vs 저격수 장면... 이건 뭐 영화관이 따로 없습니다.

효군 이전 글들 , , , , , ,